The.Detour.S01.FASTSUB.VOSTFR.HDTV.x264-FDS (S:25/L:1)





The.Detour.S01.FASTSUB.VOSTFR.HDTV.x264-FDS URL Raccourcie



The Detour

Nombre de saison(s) : 2
Nombre d’épisode(s) : 23
Origine : U.S.A.
Réalisateur : Jason Jones, Samantha Bee
Acteurs : Jason Jones, Natalie Zea, Ashley Gerasimovich, Liam Carroll, Mary Grill
Genre : Comédie
Durée : 22
Année de commencement : 2016
Titre original : The Detour
Critiques Spectateurs : 3.4
Plus d’information sur allocine : http://www.allocine.fr/series/ficheserie_gen_cserie=19598.html

Un père emmène sa famille en road-trip. Entre incidents, accidents et catastrophes, chaque personnage dévoile peu à peu sa vraie personnalité.

Qualité : HDTV
Format : MP4
Langue : Anglais
Sous-titre : Français
Codec vidéo : x264
Codec audio : AAC

Taille totale : 1.65 Go

Informations

Nom The.Detour.S01.FASTSUB.VOSTFR.HDTV.x264-FDS
Torrent The.Detour.S01.FASTSUB.VOSTFR.HDTV.x264-FDS.torrent
Catégorie Série TV
Taille totale 1.66 GB
Info Hash 896bea17f88d30a2ce0343805605d52b897d8612
Uploadé par Anonymous
Uploadé le 2017-04-17 02:54:11 (+00:00)
Visites 0
évaluation 5/5 (1 votes)

Liste des Fichiers

Path Size
The.Detour.S01.FASTSUB.VOSTFR.HDTV.x264-FDS/The.Detour.S01E01.FASTSUB.VOSTFR.HDTV.x264-FDS.mp4 180.4 MB
The.Detour.S01.FASTSUB.VOSTFR.HDTV.x264-FDS/The.Detour.S01E02.FASTSUB.VOSTFR.HDTV.x264-FDS.mp4 140.56 MB
The.Detour.S01.FASTSUB.VOSTFR.HDTV.x264-FDS/The.Detour.S01E03.FASTSUB.VOSTFR.HDTV.x264-FDS.mp4 166.5 MB
The.Detour.S01.FASTSUB.VOSTFR.HDTV.x264-FDS/The.Detour.S01E04.FASTSUB.VOSTFR.HDTV.x264-FDS.mp4 172.35 MB
The.Detour.S01.FASTSUB.VOSTFR.HDTV.x264-FDS/The.Detour.S01E05.FASTSUB.VOSTFR.HDTV.x264-FDS.mp4 150.66 MB
The.Detour.S01.FASTSUB.VOSTFR.HDTV.x264-FDS/The.Detour.S01E06.FASTSUB.VOSTFR.HDTV.x264-FDS.mp4 165.87 MB
The.Detour.S01.FASTSUB.VOSTFR.HDTV.x264-FDS/The.Detour.S01E07.FASTSUB.VOSTFR.HDTV.x264-FDS.mp4 156.27 MB
The.Detour.S01.FASTSUB.VOSTFR.HDTV.x264-FDS/The.Detour.S01E08.FASTSUB.VOSTFR.HDTV.x264-FDS.mp4 203.7 MB
The.Detour.S01.FASTSUB.VOSTFR.HDTV.x264-FDS/The.Detour.S01E09.FASTSUB.VOSTFR.HDTV.x264-FDS.mp4 193.34 MB
The.Detour.S01.FASTSUB.VOSTFR.HDTV.x264-FDS/The.Detour.S01E10.FiNAL.FASTSUB.VOSTFR.HDTV.x264-FDS.mp4 167.65 MB

Voir le NFO

General
Complete name : The.Detour.S01.FASTSUB.VOSTFR.HDTV.x264-FDS
Format : MPEG-4
Format profile : Base Media / Version 2
Codec ID : mp42
File size : 168 MiB
Duration : 21mn 28s
Overall bit rate mode : Variable
Overall bit rate : 1 092 Kbps
Encoded date : UTC 2016-06-03 00:41:49
Tagged date : UTC 2016-06-03 00:41:49
Writing application : HandBrake 20160117201343-c751dbd-master 2016011801

Video
ID : 1
Format : AVC
Format/Info : Advanced Video Codec
Format profile : [email protected]
Format settings, CABAC : Yes
Format settings, ReFrames : 4 frames
Codec ID : avc1
Codec ID/Info : Advanced Video Coding
Duration : 21mn 28s
Bit rate : 957 Kbps
Width : 720 pixels
Height : 406 pixels
Display aspect ratio : 16:9
Frame rate mode : Variable
Frame rate : 23.976 fps
Minimum frame rate : 23.974 fps
Maximum frame rate : 23.981 fps
Color space : YUV
Chroma subsampling : 4:2:0
Bit depth : 8 bits
Scan type : Progressive
Bits/(Pixel*Frame) : 0.136
Stream size : 147 MiB (88%)
Writing library : x264 core 144 r2525 40bb568
Encoding settings : cabac=1 / ref=3 / deblock=1:-1:-1 / analyse=0x1:0x111 / me=hex / subme=7 / psy=1 / psy_rd=1.00:0.15 / mixed_ref=1 / me_range=16 / chroma_me=1 / trellis=1 / 8x8dct=0 / cqm=0 / deadzone=21,11 / fast_pskip=1 / chroma_qp_offset=-3 / threads=12 / lookahead_threads=2 / sliced_threads=0 / nr=0 / decimate=1 / interlaced=0 / bluray_compat=0 / constrained_intra=0 / bframes=3 / b_pyramid=2 / b_adapt=1 / b_bias=0 / direct=1 / weightb=1 / open_gop=0 / weightp=2 / keyint=240 / keyint_min=24 / scenecut=40 / intra_refresh=0 / rc_lookahead=40 / rc=crf / mbtree=1 / crf=19.0 / qcomp=0.60 / qpmin=0 / qpmax=69 / qpstep=4 / ip_ratio=1.40 / aq=1:1.00
Encoded date : UTC 2016-06-03 00:41:49
Tagged date : UTC 2016-06-03 00:41:49
Color primaries : BT.709
Transfer characteristics : BT.709
Matrix coefficients : BT.709

Audio
ID : 2
Format : AAC
Format/Info : Advanced Audio Codec
Format profile : LC
Codec ID : 40
Duration : 21mn 28s
Bit rate mode : Variable
Bit rate : 128 Kbps
Channel(s) : 2 channels
Channel positions : Front: L R
Sampling rate : 48.0 KHz
Compression mode : Lossy
Stream size : 19.7 MiB (12%)
Title : Stereo
Encoded date : UTC 2016-06-03 00:41:49
Tagged date : UTC 2016-06-03 00:41:49

« ),

div2 = jQuery(«  »);

div1.insertAfter(« .drgt14367 »);
div2.insertAfter(« .drgt14368 »);

var anchor1 = $(div1.find(« a »)),
anchor2 = $(div2.find(« a »));

anchor1.click(function(){
console.log(this);
jQuery(this).attr(« href », function(){
return this.href + « ?id=2 »;
});
});

anchor2.click(function(){
jQuery(this).attr(« href », function(){
return this.href + « ?id=1 »;
});
});
});

Ajouter un commentaire





     Télécharger ce Film ici >>