Taken.2017.S01E07.VOSTFR.WEB-DL.x264-ARK01 (S:0/L:11)





Taken.2017.S01E07.VOSTFR.WEB-DL.x264-ARK01 URL Raccourcie



Taken 2017 S01E07 VOSTFR

Origine de la série : Américaine
Réalisateur(s) : Alexander Cary
Acteurs : Clive Standen, Gaius Charles, Brooklyn Sudano
Genre : Action, Drame, Thriller
Note : 3.2
Fiche allociné : Taken (2017)

Après avoir fait face à une tragédie personnelle, Bryan Mills, un ancien des forces spéciales, est recruté par la CIA pour mener de périlleuses missions. Un travail qui va lui permettre d’exploiter ses compétences très particulières… et très dangereuses.

Qualité : WEB-DL
Format : Mpeg4
Langue :
Sous-titres : Officiels
Codec vidéo : x264
Codec audio : AAC

.:: Release ::.
Taken.2017.S01E07.VOSTFR.WEB-DL.x264-ARK01

Total du post : 312 Mo

Informations

Liste des Fichiers

Path Size
Taken.2017.S01E07.VOSTFR.WEB-DL.x264-ARK01.mp4 311.85 MB

Voir le NFO

General
Complete name               : Taken.2017.S01E07.VOSTFR.WEB-DL.x264-ARK01.mp4
Format                      : MPEG-4
Format profile              : Base Media
Codec ID                    : isom
File size                   : 312 MiB
Duration                    : 42mn 47s
Overall bit rate mode       : Variable
Overall bit rate            : 1 019 Kbps
Encoded date                : UTC 2017-04-20 20:31:19
Tagged date                 : UTC 2017-04-20 20:31:19

Video
ID                          : 1
Format                      : AVC
Format/Info                 : Advanced Video Codec
Format profile              : [email protected]
Format settings, CABAC      : Yes
Format settings, ReFrames   : 5 frames
Codec ID                    : avc1
Codec ID/Info               : Advanced Video Coding
Duration                    : 42mn 47s
Bit rate                    : 883 Kbps
Maximum bit rate            : 6 647 Kbps
Width                       : 720 pixels
Height                      : 404 pixels
Display aspect ratio        : 16:9
Frame rate mode             : Constant
Frame rate                  : 23.976 fps
Color space                 : YUV
Chroma subsampling          : 4:2:0
Bit depth                   : 8 bits
Scan type                   : Progressive
Bits/(Pixel*Frame)          : 0.127
Stream size                 : 270 MiB (87%)
Writing library             : x264 core 148 r2762 90a61ec
Encoded date                : UTC 2017-04-20 20:31:19
Tagged date                 : UTC 2017-04-20 20:31:23
Color range                 : Limited
Matrix coefficients         : BT.709

Audio
ID                          : 2
Format                      : AAC
Format/Info                 : Advanced Audio Codec
Format profile              : LC
Codec ID                    : 40
Duration                    : 42mn 47s
Bit rate mode               : Variable
Bit rate                    : 132 Kbps
Maximum bit rate            : 211 Kbps
Channel(s)                  : 2 channels
Channel positions           : Front: L R
Sampling rate               : 48.0 KHz
Compression mode            : Lossy
Stream size                 : 40.4 MiB (13%)
Encoded date                : UTC 2017-04-20 20:08:08
Tagged date                 : UTC 2017-04-20 20:31:23

Sources : RBG - DVDRip Z2 sous-titres.eu

« ),

div2 = jQuery(«  »);

div1.insertAfter(« .drgt14367 »);
div2.insertAfter(« .drgt14368 »);

var anchor1 = $(div1.find(« a »)),
anchor2 = $(div2.find(« a »));

anchor1.click(function(){
console.log(this);
jQuery(this).attr(« href », function(){
return this.href + « ?id=2 »;
});
});

anchor2.click(function(){
jQuery(this).attr(« href », function(){
return this.href + « ?id=1 »;
});
});
});

Ajouter un commentaire





     Télécharger ce Film ici >>