NCIS.S14E21.FASTSUB.VOSTFR.HDTV.x264-ARK01 (S:0/L:13)





NCIS.S14E21.FASTSUB.VOSTFR.HDTV.x264-ARK01 URL Raccourcie



NCIS S14E21 VOSTFR

Origine de la série : Américaine
Réalisateur(s) : Donald P. Bellisario
Acteurs : Mark Harmon, Michael Weatherly, David McCallum
Genre : Action, Drame, Policier
Note : 3.9
Fiche allociné : NCIS

La Naval Criminal Investigative Service regroupe une équipe d’agents spéciaux chargés d’enquêter sur des crimes concernant la Marine.

Qualité : HDTV
Format : Mpg4
Langue :
Sous-titres :
Codec vidéo : x264
Codec audio : AAC

.:: Release ::.
NCIS.S14E21.FASTSUB.VOSTFR.HDTV.x264-ARK01

Total du post : 350 Mo

Informations

Liste des Fichiers

Path Size
NCIS.S14E21.FASTSUB.VOSTFR.HDTV.x264-ARK01.mp4 350.3 MB

Voir le NFO

General
Complete name               : NCIS.S14E21.FASTSUB.VOSTFR.HDTV.x264-ARK01.mp4
Format                      : MPEG-4
Format profile              : Base Media
Codec ID                    : isom
File size                   : 350 MiB
Duration                    : 42mn 22s
Overall bit rate mode       : Variable
Overall bit rate            : 1 156 Kbps
Encoded date                : UTC 2017-04-19 10:15:21
Tagged date                 : UTC 2017-04-19 10:15:21

Video
ID                          : 1
Format                      : AVC
Format/Info                 : Advanced Video Codec
Format profile              : [email protected]
Format settings, CABAC      : Yes
Format settings, ReFrames   : 5 frames
Codec ID                    : avc1
Codec ID/Info               : Advanced Video Coding
Duration                    : 42mn 22s
Bit rate                    : 1 020 Kbps
Maximum bit rate            : 7 873 Kbps
Width                       : 720 pixels
Height                      : 404 pixels
Display aspect ratio        : 16:9
Frame rate mode             : Constant
Frame rate                  : 23.976 fps
Color space                 : YUV
Chroma subsampling          : 4:2:0
Bit depth                   : 8 bits
Scan type                   : Progressive
Bits/(Pixel*Frame)          : 0.146
Stream size                 : 309 MiB (88%)
Writing library             : x264 core 148 r2762 90a61ec
Encoded date                : UTC 2017-04-19 10:15:21
Tagged date                 : UTC 2017-04-19 10:15:26
Color range                 : Limited
Matrix coefficients         : BT.709

Audio
ID                          : 2
Format                      : AAC
Format/Info                 : Advanced Audio Codec
Format profile              : LC
Codec ID                    : 40
Duration                    : 42mn 22s
Bit rate mode               : Variable
Bit rate                    : 132 Kbps
Maximum bit rate            : 227 Kbps
Channel(s)                  : 2 channels
Channel positions           : Front: L R
Sampling rate               : 48.0 KHz
Compression mode            : Lossy
Stream size                 : 40.0 MiB (11%)
Encoded date                : UTC 2017-04-19 09:52:12
Tagged date                 : UTC 2017-04-19 10:15:26

Sources : AVS - Addic7ed

« ),

div2 = jQuery(«  »);

div1.insertAfter(« .drgt14367 »);
div2.insertAfter(« .drgt14368 »);

var anchor1 = $(div1.find(« a »)),
anchor2 = $(div2.find(« a »));

anchor1.click(function(){
console.log(this);
jQuery(this).attr(« href », function(){
return this.href + « ?id=2 »;
});
});

anchor2.click(function(){
jQuery(this).attr(« href », function(){
return this.href + « ?id=1 »;
});
});
});

Ajouter un commentaire





     Télécharger ce Film ici >>