NCIS.New.Orleans.S03E21.FASTSUB.VOSTFR.HDTV.x264-ARK01 (S:0/L:0)





NCIS.New.Orleans.S03E21.FASTSUB.VOSTFR.HDTV.x264-ARK01 URL Raccourcie



NCIS : New Orleans S03E21 VOSTFR

Origine de la série : Américaine
Réalisateur(s) : Gary Glasberg
Acteurs : Scott Bakula, Lucas Black, Zoe McLellan
Genre : Drame, Policier
Note : 3.1
Fiche allociné : NCIS : New Orleans

Les enquêtes du NCIS dans la Big Easy, une ville de la Nouvelle-Orléans connue pour sa musique, le divertissement et la décadence. Menée par Dwayne Pride, dit « le King », l’équipe se compose de Christopher LaSalle, un agent spécial qui travaille très dur, mais aussi de la charismatique Meredith Brody, transférée depuis peu, et à la recherche d’un nouveau départ. Pour les aider, le Dr Loretta Wade, aussi excentrique qu’intelligente, intervient en tant que médecin légiste. Cette ville haute en couleurs, abrite également un côté sombre …

Spin-off de NCIS : Enquêtes spéciales.

Qualité : HDTV
Format : Mpeg4
Langue :
Sous-titres :
Codec vidéo : x264
Codec audio : AAC

.:: Release ::.
NCIS.New.Orleans.S03E21.FASTSUB.VOSTFR.HDTV.x264-ARK01

Total du post : 361 Mo

Informations

Liste des Fichiers

Path Size
NCIS.New.Orleans.S03E21.FASTSUB.VOSTFR.HDTV.x264-ARK01.mp4 360.93 MB

Voir le NFO

General
Complete name               : NCIS.New.Orleans.S03E21.FASTSUB.VOSTFR.HDTV.x264-ARK01.mp4
Format                      : MPEG-4
Format profile              : Base Media
Codec ID                    : isom
File size                   : 361 MiB
Duration                    : 42mn 27s
Overall bit rate mode       : Variable
Overall bit rate            : 1 188 Kbps
Encoded date                : UTC 2017-04-20 10:12:27
Tagged date                 : UTC 2017-04-20 10:12:27

Video
ID                          : 1
Format                      : AVC
Format/Info                 : Advanced Video Codec
Format profile              : [email protected]
Format settings, CABAC      : Yes
Format settings, ReFrames   : 5 frames
Codec ID                    : avc1
Codec ID/Info               : Advanced Video Coding
Duration                    : 42mn 27s
Bit rate                    : 1 052 Kbps
Maximum bit rate            : 6 027 Kbps
Width                       : 720 pixels
Height                      : 404 pixels
Display aspect ratio        : 16:9
Frame rate mode             : Constant
Frame rate                  : 23.976 fps
Color space                 : YUV
Chroma subsampling          : 4:2:0
Bit depth                   : 8 bits
Scan type                   : Progressive
Bits/(Pixel*Frame)          : 0.151
Stream size                 : 320 MiB (89%)
Writing library             : x264 core 148 r2762 90a61ec
Encoded date                : UTC 2017-04-20 10:12:27
Tagged date                 : UTC 2017-04-20 10:12:31
Color range                 : Limited
Matrix coefficients         : BT.709

Audio
ID                          : 2
Format                      : AAC
Format/Info                 : Advanced Audio Codec
Format profile              : LC
Codec ID                    : 40
Duration                    : 42mn 27s
Bit rate mode               : Variable
Bit rate                    : 132 Kbps
Maximum bit rate            : 153 Kbps
Channel(s)                  : 2 channels
Channel positions           : Front: L R
Sampling rate               : 48.0 KHz
Compression mode            : Lossy
Stream size                 : 40.1 MiB (11%)
Encoded date                : UTC 2017-04-20 09:52:59
Tagged date                 : UTC 2017-04-20 10:12:31

Sources : KILLERS - Addic7ed

« ),

div2 = jQuery(«  »);

div1.insertAfter(« .drgt14367 »);
div2.insertAfter(« .drgt14368 »);

var anchor1 = $(div1.find(« a »)),
anchor2 = $(div2.find(« a »));

anchor1.click(function(){
console.log(this);
jQuery(this).attr(« href », function(){
return this.href + « ?id=2 »;
});
});

anchor2.click(function(){
jQuery(this).attr(« href », function(){
return this.href + « ?id=1 »;
});
});
});

Ajouter un commentaire





     Télécharger ce Film ici >>